<?xml version="1.0" standalone="no"?><!DOCTYPE svg PUBLIC "-//W3C//DTD SVG 1.1//EN" "http://www.w3.org/Graphics/SVG/1.1/DTD/svg11.dtd" ><svg xmlns="http://www.w3.org/2000/svg"><metadata></metadata><defs><font id="fonteditor" horiz-adv-x="205"><font-face font-family="_ mw\qOS2.0-cgCT|ûÿSamtype@QQ.com" font-weight="400" font-stretch="normal" units-per-em="256" panose-1="2 0 0 0 0 0 0 0 0 0" ascent="229" descent="-67" x-height="0" bbox="8 -27 175 194" underline-thickness="12" underline-position="-55" unicode-range="U+0028-0079" /><missing-glyph horiz-adv-x="256"  /><glyph glyph-name="parenleft" unicode="(" d="M105 -22 L75 -22 L53 21 L41 86 L53 151 L75 194 L105 194 L80 149 L69 86 L80 23 L105 -22 Z" /><glyph glyph-name="parenright" unicode=")" d="M84 86 L73 21 L50 -22 L20 -22 L45 23 L55 86 L45 149 L20 194 L50 194 L73 151 L84 86 Z" /><glyph glyph-name="zero" unicode="0" d="M174 -5 L20 -5 L20 181 L174 181 L174 -5 ZM148 18 L148 158 L46 158 L46 18 L148 18 Z" /><glyph glyph-name="one" unicode="1" d="M114 -5 L87 -5 L87 159 L57 159 L57 181 L114 181 L114 -5 Z" /><glyph glyph-name="two" unicode="2" d="M173 -5 L21 -5 L21 100 L145 100 L145 158 L23 158 L23 181 L173 181 L173 77 L50 77 L50 18 L173 18 L173 -5 Z" /><glyph glyph-name="three" unicode="3" d="M173 -5 L21 -5 L21 18 L146 18 L146 78 L41 78 L41 101 L146 101 L146 158 L21 158 L21 181 L173 181 L173 -5 Z" /><glyph glyph-name="four" unicode="4" d="M170 -5 L143 -5 L143 53 L27 53 L27 181 L56 181 L56 78 L143 78 L143 181 L170 181 L170 -5 Z" /><glyph glyph-name="five" unicode="5" d="M174 -5 L21 -5 L21 17 L148 17 L148 78 L21 78 L21 181 L174 181 L174 159 L48 159 L48 100 L174 100 L174 -5 Z" /><glyph glyph-name="six" unicode="6" d="M174 -5 L21 -5 L21 181 L174 181 L174 159 L48 159 L48 103 L174 103 L174 -5 ZM148 17 L148 81 L48 81 L48 17 L148 17 Z" /><glyph glyph-name="seven" unicode="7" d="M174 181 Q151 134 130 88 Q109 42 86 -5 L58 -5 L135 159 L13 159 L13 181 L174 181 Z" /><glyph glyph-name="eight" unicode="8" d="M175 -5 L19 -5 L19 181 L175 181 L175 -5 ZM149 16 L149 78 L46 78 L46 16 L149 16 ZM149 101 L149 159 L46 159 L46 101 L149 101 Z" /><glyph glyph-name="nine" unicode="9" d="M174 -5 L20 -5 L20 17 L148 17 L148 73 L20 73 L20 181 L174 181 L174 -5 ZM148 95 L148 159 L47 159 L47 95 L148 95 Z" /><glyph glyph-name="D" unicode="d" d="M128 21 L128 114 L110 136 L46 136 L46 21 L128 21 ZM153 -2 L20 -2 L20 159 L124 159 L153 124 L153 -2 Z" /><glyph glyph-name="H" unicode="h" d="M155 -2 L129 -2 L129 72 L46 72 L46 -2 L20 -2 L20 159 L46 159 L46 93 L129 93 L129 159 L155 159 L155 -2 Z" /><glyph glyph-name="a" unicode="a" d="M111 21 L111 51 L42 51 L42 21 L111 21 ZM137 -3 L17 -3 L17 74 L111 74 L111 104 L48 104 L48 128 L137 128 L137 -3 Z" /><glyph glyph-name="c" unicode="c" d="M139 -2 L18 -2 L18 128 L139 128 L139 105 L42 105 L42 21 L139 21 L139 -2 Z" /><glyph glyph-name="e" unicode="e" d="M118 77 L118 104 L42 104 L42 77 L118 77 ZM143 -3 L17 -3 L17 128 L143 128 L143 54 L42 54 L42 20 L143 20 L143 -3 Z" /><glyph glyph-name="i" unicode="i" d="M53 139 L28 139 L28 161 L53 161 L53 139 ZM8 128 L53 128 L53 -1 L28 -1 L28 106 L8 106 L8 128 Z" /><glyph glyph-name="n" unicode="n" d="M136 -2 L111 -2 L111 105 L43 105 L43 -2 L18 -2 L18 128 L136 128 L136 -2 Z" /><glyph glyph-name="y" unicode="y" d="M144 -27 L17 -27 L17 -5 L118 -5 L118 26 L17 26 L17 128 L43 128 L43 49 L118 49 L118 128 L144 128 L144 -27 Z" /></font>
</defs>
</svg>
